xs rar 8 84mb | Призраки / Паранормальщина / Ghosted [01x01-15 из 16] (2017) WEBRip 1080p | IdeaFilm | Season 4 Episode 20 Scared Very Straight
 * Dettagli Torrent   globale  | .nfo   | Commenti (2) 


- Escape Plan - Fuga dall'inferno (2013) [BDrip 1080p - Ita Eng Dts Ac3 5.1 - Sub NUIta] by BLUWORLD -


Download via torrent:
Categoria bittorrent BDRip
Descrizione
Escape Plan - Fuga dall'inferno (2013)



Titolo originale: Escape Plan
Nazionalità: Stati Uniti d'America
Anno: 2013
Genere: azione, thriller
Regia: Mikael Håfström

Cast
Sylvester Stallone: Ray Breslin
Arnold Schwarzenegger: Emil Rottmayer
Jim Caviezel: Willard Hobbes
Vincent D'Onofrio: Lester Clark
Amy Ryan: Abigail Ross
Caitriona Balfe: Jessica Miller
Vinnie Jones: Drake
Sam Neill: Dott. Kyrie
50 Cent: Hush
Matt Gerald: Roag
Faran Tahir: Javed

Ray Breslin lavora per una società che si occupa di collaudare penitenziari di massima sicurezza: suo compito è farsi incarcerare sotto le spoglie di un comune detenuto e cercare una via di fuga. L'ultimo suo incarico consiste nel verificare la sicurezza della Tomba, una prigione high tech basata sui suoi stessi studi e da cui in un primo momento sembra impossibile evadere. Ben presto Ray si accorge che qualcosa non va e che non è stata rispettata nessuna delle misure di sicurezza precedentemente concordate per poter essere liberato, ponendo fine al test. All'interno del carcere dovrà confrontarsi con i vari detenuti, tra cui Emil Rottmayer, un solidale compagno di prigionia dal passato oscuro, per trovare un appoggio interno e iniziare a pianificare la fuga. Breslin scopre così che la Tomba è un'enorme nave cargo all'interno della quale è stato costruito il penitenziario. Dopo aver ottenuto la complicità del medico della prigione i due amici pianificano la fuga, ipotizzando la posizione della nave per mezzo di un sestante improvvisato. Parallelamente, al di fuori del carcere, si svolge un'indagine da parte dei collaboratori di Breslin per scoprire chi ha voluto far sparire il loro collega dalla faccia della terra.







General
Unique ID                                : 230465387120651193454834288744069584342 (0xAD6204DE7F6AE8C285AE2D76E357D5D6)
Complete name                            : D:\Downloads\Escape.Plan.Fuga.Dall.Inferno.2013.DTS.ITA.ENG.1080p.BluRay.x264-BLUWORLD.mkv
Format                                   : Matroska
Format version                           : Version 4 / Version 2
File size                                : 9.91 GiB
Duration                                 : 1 h 45 min
Overall bit rate mode                    : Variable
Overall bit rate                         : 13.5 Mb/s
Encoded date                             : UTC 2014-02-20 20:56:16
Writing application                      : mkvmerge v6.7.0 ('Back to the Ground') 32bit built on Jan  8 2014 15:03:17
Writing library                          : libebml v1.3.0 + libmatroska v1.4.1

Video
ID                                       : 1
Format                                   : AVC
Format/Info                              : Advanced Video Codec
Format profile                           : [email protected]
Format settings, CABAC                   : Yes
Format settings, RefFrames               : 5 frames
Codec ID                                 : V_MPEG4/ISO/AVC
Duration                                 : 1 h 45 min
Bit rate mode                            : Variable
Bit rate                                 : 9 200 kb/s
Maximum bit rate                         : 62.5 Mb/s
Width                                    : 1 920 pixels
Height                                   : 800 pixels
Display aspect ratio                     : 2.40:1
Frame rate mode                          : Constant
Frame rate                               : 24.000 FPS
Color space                              : YUV
Chroma subsampling                       : 4:2:0
Bit depth                                : 8 bits
Scan type                                : Progressive
Bits/(Pixel*Frame)                       : 0.250
Stream size                              : 6.56 GiB (66%)
Writing library                          : x264 core 140 r2377 1ca7bb9
Default                                  : Yes
Forced                                   : No

Audio #1
ID                                       : 2
Format                                   : DTS
Format/Info                              : Digital Theater Systems
Mode                                     : 16
Format settings, Endianness              : Big
Codec ID                                 : A_DTS
Duration                                 : 1 h 45 min
Bit rate mode                            : Constant
Bit rate                                 : 1 509 kb/s
Channel(s)                               : 6 channels
Channel positions                        : Front: L C R, Side: L R, LFE
Sampling rate                            : 48.0 kHz
Frame rate                               : 93.750 FPS (512 SPF)
Bit depth                                : 24 bits
Compression mode                         : Lossy
Delay relative to video                  : 11 ms
Stream size                              : 1.11 GiB (11%)
Title                                    : Ita. DTS 1510 Kbps
Language                                 : Italian
Default                                  : Yes
Forced                                   : No

Audio #2
ID                                       : 3
Format                                   : AC-3
Format/Info                              : Audio Coding 3
Format settings, Endianness              : Big
Codec ID                                 : A_AC3
Duration                                 : 1 h 45 min
Bit rate mode                            : Constant
Bit rate                                 : 640 kb/s
Channel(s)                               : 6 channels
Channel positions                        : Front: L C R, Side: L R, LFE
Sampling rate                            : 48.0 kHz
Frame rate                               : 31.250 FPS (1536 SPF)
Bit depth                                : 16 bits
Compression mode                         : Lossy
Stream size                              : 481 MiB (5%)
Title                                    : Ita. AC3 640 Kbps
Language                                 : Italian
Service kind                             : Complete Main
Default                                  : No
Forced                                   : No

Audio #3
ID                                       : 4
Format                                   : DTS
Format/Info                              : Digital Theater Systems
Mode                                     : 16
Format settings, Endianness              : Big
Codec ID                                 : A_DTS
Duration                                 : 1 h 45 min
Bit rate mode                            : Constant
Bit rate                                 : 1 509 kb/s
Channel(s)                               : 6 channels
Channel positions                        : Front: L C R, Side: L R, LFE
Sampling rate                            : 48.0 kHz
Frame rate                               : 93.750 FPS (512 SPF)
Bit depth                                : 16 bits
Compression mode                         : Lossy
Delay relative to video                  : 11 ms
Stream size                              : 1.11 GiB (11%)
Title                                    : Eng. DTS 1510 Kbps
Language                                 : English
Default                                  : No
Forced                                   : No

Audio #4
ID                                       : 5
Format                                   : AC-3
Format/Info                              : Audio Coding 3
Format settings, Endianness              : Big
Codec ID                                 : A_AC3
Duration                                 : 1 h 45 min
Bit rate mode                            : Constant
Bit rate                                 : 640 kb/s
Channel(s)                               : 6 channels
Channel positions                        : Front: L C R, Side: L R, LFE
Sampling rate                            : 48.0 kHz
Frame rate                               : 31.250 FPS (1536 SPF)
Bit depth                                : 16 bits
Compression mode                         : Lossy
Stream size                              : 481 MiB (5%)
Title                                    : Eng. AC3 1510 Kbps
Language                                 : English
Service kind                             : Complete Main
Default                                  : No
Forced                                   : No

Text
ID                                       : 6
Format                                   : UTF-8
Codec ID                                 : S_TEXT/UTF8
Codec ID/Info                            : UTF-8 Plain Text
Title                                    : Sub. Ita. Non Udenti
Language                                 : Italian
Default                                  : No
Forced                                   : No

Menu
00:00:00.000                             : en:00:00:00.000
00:02:58.625                             : en:00:02:58.625
00:08:15.542                             : en:00:08:15.542
00:13:53.708                             : en:00:13:53.708
00:18:33.958                             : en:00:18:33.958
00:21:53.542                             : en:00:21:53.542
00:25:54.542                             : en:00:25:54.542
00:32:56.167                             : en:00:32:56.167
00:43:10.083                             : en:00:43:10.083
00:47:25.083                             : en:00:47:25.083
00:51:48.875                             : en:00:51:48.875
00:58:12.500                             : en:00:58:12.500
01:01:46.708                             : en:01:01:46.708
01:13:34.750                             : en:01:13:34.750
01:24:59.375                             : en:01:24:59.375
01:36:48.250                             : en:01:36:48.250





Info: Per scaricare devi usare un client come uTorrent o Transmission
AnnounceURL
udp://tracker.ccc.de:80
Hash 2bc4af8e200bd8e0b883fb54569ff5207d4edc25
Peers seeds: 0 , leech: 0
Size 9.91 GB
Completato 0x
Aggiunto 08.07.17 - 06:07:09
Uploader   alicerasi
Votazione (Voti: 0)


Condividi questo bittorrent:


html/blog:


bbcode/forum:




Aggiungi Commento
Ultimi commenti
  
siamo in tanti che vorrebbero finirlo ma la fonte completa è scomparsa.
10/07 10.41
  
..ma il seeder dove sta????????????????????????????
08/07 11.39
Tutti commenti (2)