VA - Хит-парады Топы Чарты FM-станций: DFM, Europa+, Record, Energy, Love Radio, Русское Радио. Август (2016) MP3 | Why Await Life's End | Попкорн / Popcorn (1991) BDRemux 1080р | A
 * Dettagli Torrent   globale  | Commenti (0) 


- Child 44 Il bambino numero 44 (2015) [BDmux 1080p - H264 - Ita Eng Dts Ita Ac3 - Sub Ita Eng] by TRL -


Download via torrent:
Categoria bittorrent BDRip
Descrizione
Child 44 - Il bambino numero 44 (2015)



Titolo originale: Child 44
Nazionalità: Stati Uniti d'America, Regno Unito, Romania, Repubblica Ceca
Anno: 2015
Genere: thriller, drammatico
Regia: Daniel Espinosa

Cast
Tom Hardy: Leo Demidov
Noomi Rapace: Raisa Demidov
Gary Oldman: Generale Mikhail Nesterov
Joel Kinnaman: Vasili Nikitin
Charles Dance: Maggiore Grachev
Jason Clarke: Anatoly Brodsky
Vincent Cassel: Maggiore Kuzmin
Paddy Considine: Vladimir Malevich
Tara Fitzgerald: Inessa Nesterov
Nikolaj Lie Kaas: Ivan Sukov
Fares Fares: Alexei Andreyev
Fedja Stukan: Sergei
Agnieszka Grochowska: Nina Andreeva

Il film è ispirato alle vicende del serial killer di Rostov Andrej Romanovi? ?ikatilo, pur ambientando la storia in anni antecedenti ai fatti reali e discostandosi nella trama.

La pellicola è l'adattamento cinematografico del romanzo Bambino 44 (Child 44) scritto nel 2008 da Tom Rob Smith, pubblicato in Italia da Sperling & Kupfer.


Mosca, 1953. Leo Demidov, membro della polizia segreta sovietica dell'MGB, perde il proprio status quando rifiuta di denunciare come traditrice la moglie Raisa. Esiliati da Mosca e inviati in un gelido avamposto di provincia presso i monti Urali, Leo e Raisa aiutano il Generale Mikhail Nesterov ad indagare su una serie di delitti di bambini che avvengono lungo le ferrovie russe e che li porterà a scontrarsi con il folle Vasili, rivale di Leo della polizia segreta.






General
Unique ID                                : 225254526466442317431062343768125737320 (0xA976719A7485F0CC8F147D40F094096
Complete name                            : D:\Downloads\Child.44.Il.Bambino.N.44.2015.iTA-ENG.Bluray.1080p.x264-TRL.mkv
Format                                   : Matroska
Format version                           : Version 2
File size                                : 10.1 GiB
Duration                                 : 2 h 17 min
Overall bit rate                         : 10.6 Mb/s
Encoded date                             : UTC 2015-08-08 22:59:19
Writing application                      : mkvmerge v7.1.0 ('Good Love') 32bit built on Jul 27 2014 12:59:18
Writing library                          : libebml v1.3.0 + libmatroska v1.4.1
Attachments                              : F1_T2_Video - .rar

Video
ID                                       : 1
Format                                   : AVC
Format/Info                              : Advanced Video Codec
Format profile                           : [email protected]
Format settings, CABAC                   : Yes
Format settings, ReFrames                : 5 frames
Codec ID                                 : V_MPEG4/ISO/AVC
Duration                                 : 2 h 17 min
Bit rate                                 : 7 458 kb/s
Width                                    : 1 920 pixels
Height                                   : 800 pixels
Display aspect ratio                     : 2.40:1
Frame rate mode                          : Constant
Frame rate                               : 23.976 (24000/1001) FPS
Color space                              : YUV
Chroma subsampling                       : 4:2:0
Bit depth                                : 8 bits
Scan type                                : Progressive
Bits/(Pixel*Frame)                       : 0.203
Stream size                              : 7.15 GiB (70%)
Writing library                          : x264 core 146 r2538 121396c
Language                                 : English
Default                                  : Yes
Forced                                   : No

Audio #1
ID                                       : 2
Format                                   : DTS
Format/Info                              : Digital Theater Systems
Mode                                     : 16
Format settings, Endianness              : Big
Codec ID                                 : A_DTS
Duration                                 : 2 h 17 min
Bit rate mode                            : Constant
Bit rate                                 : 768 kb/s
Channel(s)                               : 6 channels
Channel positions                        : Front: L C R, Side: L R, LFE
Sampling rate                            : 48.0 kHz
Frame rate                               : 93.750 FPS (512 spf)
Bit depth                                : 24 bits
Compression mode                         : Lossy
Stream size                              : 754 MiB (7%)
Title                                    : DVD RESYNC
Language                                 : Italian
Default                                  : Yes
Forced                                   : No

Audio #2
ID                                       : 3
Format                                   : AC-3
Format/Info                              : Audio Coding 3
Format settings, Endianness              : Big
Codec ID                                 : A_AC3
Duration                                 : 2 h 17 min
Bit rate mode                            : Constant
Bit rate                                 : 640 kb/s
Channel(s)                               : 6 channels
Channel positions                        : Front: L C R, Side: L R, LFE
Sampling rate                            : 48.0 kHz
Frame rate                               : 31.250 FPS (1536 spf)
Bit depth                                : 16 bits
Compression mode                         : Lossy
Stream size                              : 628 MiB (6%)
Title                                    : DVD RESYNC
Language                                 : Italian
Service kind                             : Complete Main
Default                                  : No
Forced                                   : No

Audio #3
ID                                       : 4
Format                                   : DTS
Format/Info                              : Digital Theater Systems
Mode                                     : 16
Format settings, Endianness              : Big
Codec ID                                 : A_DTS
Duration                                 : 2 h 17 min
Bit rate mode                            : Constant
Bit rate                                 : 1 509 kb/s
Channel(s)                               : 6 channels
Channel positions                        : Front: L C R, Side: L R, LFE
Sampling rate                            : 48.0 kHz
Frame rate                               : 93.750 FPS (512 spf)
Bit depth                                : 24 bits
Compression mode                         : Lossy
Stream size                              : 1.45 GiB (14%)
Language                                 : English
Default                                  : No
Forced                                   : No

Text #1
ID                                       : 5
Format                                   : UTF-8
Codec ID                                 : S_TEXT/UTF8
Codec ID/Info                            : UTF-8 Plain Text
Title                                    : FORCED
Language                                 : Italian
Default                                  : Yes
Forced                                   : No

Text #2
ID                                       : 6
Format                                   : UTF-8
Codec ID                                 : S_TEXT/UTF8
Codec ID/Info                            : UTF-8 Plain Text
Language                                 : Italian
Default                                  : No
Forced                                   : No

Text #3
ID                                       : 7
Format                                   : UTF-8
Codec ID                                 : S_TEXT/UTF8
Codec ID/Info                            : UTF-8 Plain Text
Language                                 : English
Default                                  : No
Forced                                   : No

Menu
00:00:00.000                             : en:00:00:00.000
00:06:34.060                             : en:00:06:34.060
00:17:19.288                             : en:00:17:19.288
00:22:45.196                             : en:00:22:45.196
00:33:14.450                             : en:00:33:14.450
00:40:53.992                             : en:00:40:53.992
00:48:27.445                             : en:00:48:27.445
00:59:22.766                             : en:00:59:22.766
01:03:56.164                             : en:01:03:56.164
01:10:16.420                             : en:01:10:16.420
01:19:23.382                             : en:01:19:23.382
01:28:12.787                             : en:01:28:12.787
01:38:45.668                             : en:01:38:45.668
01:47:48.920                             : en:01:47:48.920
01:54:15.055                             : en:01:54:15.055
02:02:20.373                             : en:02:02:20.373





Info: Per scaricare devi usare un client come uTorrent o Transmission
AnnounceURL
udp://tracker.tntvillage.scambioetico.org:2710/announce
Hash 990d6a090d364d6437c5c0f4cbcf3b2cda41ee6f
Peers seeds: 8 , leech: 3
Size 10.14 GB
Completato 1154x
Aggiunto 27.06.17 - 11:06:35
Uploader   alicerasi
Votazione (Voti: 0)


Condividi questo bittorrent:


html/blog:


bbcode/forum:




Aggiungi Commento