Björn Hlynur Haraldsson | приключения | Policial
 * Dettagli Torrent   globale  | Commenti (0) 


- Criminal (2016) [BDrip 1080p - H264 - Ita Eng Dts 5.1 Ita Ac3 5.1 - Sub Ita NUEng] -


Download via torrent:
Categoria bittorrent BDRip
Descrizione
Criminal (2016)



Titolo originale: Criminal
Nazionalità: Stati Uniti d'America, Regno Unito
Anno: 2016
Genere: azione, drammatico, thriller, spionaggio
Regia: Ariel Vromen

Cast
Kevin Costner: Jerico Stewart
Tommy Lee Jones: dott. Franks
Gal Gadot: Jill Pope
Alice Eve: Marta Lynch
Antje Traue: Elsa Mueller
Gary Oldman: Quaker Wells
Jordi Mollà: Hagbardaka Heimbahl
Michael Pitt: Jan Stroop
Natalie Burn: Shoo Shoo
Scott Adkins: Pete Greensleaves
Ryan Reynolds: Bill Pope
Colin Salmon: direttore del carcere
Robert Davi: ammiraglio Lance
Richard Reid: James Osborne
Tommy Hatto: capitano Burrows
Amaury Nolasco: Esteban Ruiza
Mark Kempner: tassista londinese Wylliam Boid
Freddy Bosche: agente Pfeiffer
Piers Morgan: sé stesso

I ricordi del defunto agente della CIA Bill Pope vengono trapiantati nel condannato a morte Jerico Stewart, a fine di completare la sua missione e sventare una minaccia internazionale.









General
Unique ID                                : 198998918297797261224966680865957310514 (0x95B5CC2D38F1D88B99F43AE3902D7032)
Complete name                            : D:\Downloads\Criminal.2016.iTA-ENG.Bluray.DTS.1080p.x264.mkv
Format                                   : Matroska
Format version                           : Version 2
File size                                : 9.08 GiB
Duration                                 : 1 h 53 min
Overall bit rate                         : 11.5 Mb/s
Encoded date                             : UTC 2016-08-02 18:31:01
Writing application                      : mkvmerge v7.8.0 ('River Man') 32bit built on Mar 27 2015 16:18:02
Writing library                          : libebml v1.3.1 + libmatroska v1.4.2
Attachments                              : Criminal.2016.REMUX-FraMeSToR.rar

Video
ID                                       : 1
Format                                   : AVC
Format/Info                              : Advanced Video Codec
Format profile                           : [email protected]
Format settings, CABAC                   : Yes
Format settings, ReFrames                : 5 frames
Codec ID                                 : V_MPEG4/ISO/AVC
Duration                                 : 1 h 53 min
Bit rate                                 : 7 573 kb/s
Width                                    : 1 920 pixels
Height                                   : 804 pixels
Display aspect ratio                     : 2.40:1
Frame rate mode                          : Constant
Frame rate                               : 24.000 FPS
Original frame rate                      : 23.976 (24000/1001) FPS
Color space                              : YUV
Chroma subsampling                       : 4:2:0
Bit depth                                : 8 bits
Scan type                                : Progressive
Bits/(Pixel*Frame)                       : 0.204
Stream size                              : 6.00 GiB (66%)
Writing library                          : x264 core 148 r2692 64f4e24
Language                                 : English
Default                                  : Yes
Forced                                   : No

Audio #1
ID                                       : 2
Format                                   : DTS
Format/Info                              : Digital Theater Systems
Mode                                     : 16
Format settings, Endianness              : Big
Codec ID                                 : A_DTS
Duration                                 : 1 h 53 min
Bit rate mode                            : Constant
Bit rate                                 : 1 509 kb/s
Channel(s)                               : 6 channels
Channel positions                        : Front: L C R, Side: L R, LFE
Sampling rate                            : 48.0 kHz
Frame rate                               : 93.750 FPS (512 spf)
Bit depth                                : 24 bits
Compression mode                         : Lossy
Stream size                              : 1.20 GiB (13%)
Language                                 : Italian
Default                                  : Yes
Forced                                   : No

Audio #2
ID                                       : 3
Format                                   : AC-3
Format/Info                              : Audio Coding 3
Format settings, Endianness              : Big
Codec ID                                 : A_AC3
Duration                                 : 1 h 53 min
Bit rate mode                            : Constant
Bit rate                                 : 640 kb/s
Channel(s)                               : 6 channels
Channel positions                        : Front: L C R, Side: L R, LFE
Sampling rate                            : 48.0 kHz
Frame rate                               : 31.250 FPS (1536 spf)
Bit depth                                : 16 bits
Compression mode                         : Lossy
Stream size                              : 519 MiB (6%)
Language                                 : Italian
Service kind                             : Complete Main
Default                                  : No
Forced                                   : No

Audio #3
ID                                       : 4
Format                                   : DTS
Format/Info                              : Digital Theater Systems
Mode                                     : 16
Format settings, Endianness              : Big
Codec ID                                 : A_DTS
Duration                                 : 1 h 53 min
Bit rate mode                            : Constant
Bit rate                                 : 1 509 kb/s
Channel(s)                               : 6 channels
Channel positions                        : Front: L C R, Side: L R, LFE
Sampling rate                            : 48.0 kHz
Frame rate                               : 93.750 FPS (512 spf)
Bit depth                                : 24 bits
Compression mode                         : Lossy
Stream size                              : 1.20 GiB (13%)
Language                                 : English
Default                                  : No
Forced                                   : No

Text #1
ID                                       : 5
Format                                   : UTF-8
Codec ID                                 : S_TEXT/UTF8
Codec ID/Info                            : UTF-8 Plain Text
Title                                    : FORCED
Language                                 : Italian
Default                                  : Yes
Forced                                   : No

Text #2
ID                                       : 6
Format                                   : UTF-8
Codec ID                                 : S_TEXT/UTF8
Codec ID/Info                            : UTF-8 Plain Text
Title                                    : REGOLARI
Language                                 : Italian
Default                                  : No
Forced                                   : No

Text #3
ID                                       : 7
Format                                   : UTF-8
Codec ID                                 : S_TEXT/UTF8
Codec ID/Info                            : UTF-8 Plain Text
Title                                    : NON UDENTI
Language                                 : English
Default                                  : No
Forced                                   : No

Menu
00:00:00.000                             : en:Chapter 1
00:10:40.624                             : en:Chapter 2
00:15:31.332                             : en:Chapter 3
00:23:43.916                             : en:Chapter 4
00:30:54.707                             : en:Chapter 5
00:35:59.207                             : en:Chapter 6
00:45:33.582                             : en:Chapter 7
00:48:45.582                             : en:Chapter 8
00:54:48.165                             : en:Chapter 9
01:01:42.541                             : en:Chapter 10
01:08:28.499                             : en:Chapter 11
01:16:07.040                             : en:Chapter 12
01:22:15.207                             : en:Chapter 13
01:29:46.624                             : en:Chapter 14
01:36:40.290                             : en:Chapter 15
01:42:02.374                             : en:Chapter 16





Info: Per scaricare devi usare un client come uTorrent o Transmission
AnnounceURL
http://tracker.tntvillage.scambioetico.org:2710/announce
Hash 38fa4dda263cbd0b17f8a4a30f64a94e28144c01
Peers seeds: 14 , leech: 0
Size 9.08 GB
Completato 2374x
Aggiunto 25.06.17 - 08:06:01
Uploader   alicerasi
Votazione (Voti: 0)


Condividi questo bittorrent:


html/blog:


bbcode/forum:




Aggiungi Commento