Norton AntiVirus 2010. | 手机端 | IMDb: 6.0 HD Never Leave Alive
 * Dettagli Torrent   globale  | Commenti (0) 


- Black Mass L'ultimo Gangster 2015 [BDrip 1080p - H264 - Ita Ac3 Eng Dts - Sub Ita NUEng] by BLUWORLD -


Download via torrent:
Categoria bittorrent BDRip
Descrizione
Black Mass - L'ultimo gangster (2015)



Titolo originale: Black Mass
Nazionalità: USA
Anno: 2015
Genere: azione, biografico, drammatico
Regia: Scott Cooper

Cast
Johnny Depp: James 'Whitey' Bulger
Joel Edgerton: John Connolly
Benedict Cumberbatch: Bill Bulger
Kevin Bacon: Charles McGuire
Jesse Plemons: Kevin Weeks
Peter Sarsgaard: Brian Halloran
Dakota Johnson: Lindsey Cyr
Corey Stoll: Fred Wyshak
Juno Temple: Deborah Hussey
Adam Scott: Robert Fitzpatrick
Julianne Nicholson: Marianne Connolly
Rory Cochrane: Stephen Flemmi
Brad Carter: John McIntyre
David Harbour: John Morris
Patrick M. Walsh: Michael Donahue
Owen Burke: Buddy Leonard
Luke Ryan: Douglas Cyr
Lonnie Farmer: agente Eric Olsen
James Russo: agente Scott Gariola
David Conley: agente Flynn
Jeremy Strong: Josh Bon
Bill Camp: John Callahan
W. Earl Brown: John Martorano
Scott Anderson: Tommy King
Erica McDermott: Mary Bulger
David De Black: Roger Wheeler
Jamie Donnelly: Miss Cody
Marc Mahoney: Mickey Maloney
Lewis D. Wheeler: Jeremiah O'Sullivan
Anthony Molinaro: Charlie
Bill Meleady: Joe Cahill
Tom Camp: Padre Mackey
Richard Donnelly: Gerald O'Neill
Marc Carver: Dick Lehr

A metà degli anni settanta, James Bulger diventa il leader della Winter Hill Gang e combatte la famiglia italiana degli Angiulo sugli affari illegali di South Boston. John Connolly, agente dell'FBI, propone a Bulger un'alleanza che permetterà a Connolly di fare carriera e a Jimmy di eliminare gli Angiulo e prendere il comando della città.







General
Unique ID                                : 216852358938243065631758696541962973870 (0xA3243EC2BDC8ECD291B72FA2B52132AE)
Complete name                            : D:\Downloads\Black.Mass-L.Ultimo.Gangster.2015.ITA.ENG.1080p.BluRay.x264-BLUWORLD.mkv
Format                                   : Matroska
Format version                           : Version 4 / Version 2
File size                                : 9.72 GiB
Duration                                 : 2 h 2 min
Overall bit rate mode                    : Variable
Overall bit rate                         : 11.3 Mb/s
Encoded date                             : UTC 2016-01-22 07:59:48
Writing application                      : mkvmerge v8.8.0 ('Wind at my back') 32bit
Writing library                          : libebml v1.3.3 + libmatroska v1.4.4

Video
ID                                       : 1
Format                                   : AVC
Format/Info                              : Advanced Video Codec
Format profile                           : [email protected]
Format settings, CABAC                   : Yes
Format settings, ReFrames                : 5 frames
Codec ID                                 : V_MPEG4/ISO/AVC
Duration                                 : 2 h 2 min
Bit rate mode                            : Variable
Bit rate                                 : 9 200 kb/s
Maximum bit rate                         : 62.5 Mb/s
Width                                    : 1 920 pixels
Height                                   : 800 pixels
Display aspect ratio                     : 2.40:1
Frame rate mode                          : Constant
Frame rate                               : 23.976 (24000/1001) FPS
Color space                              : YUV
Chroma subsampling                       : 4:2:0
Bit depth                                : 8 bits
Scan type                                : Progressive
Bits/(Pixel*Frame)                       : 0.250
Stream size                              : 7.87 GiB (81%)
Writing library                          : x264 core 148 r2638 7599210
Default                                  : Yes
Forced                                   : No

Audio #1
ID                                       : 2
Format                                   : AC-3
Format/Info                              : Audio Coding 3
Format settings, Endianness              : Big
Codec ID                                 : A_AC3
Duration                                 : 2 h 2 min
Bit rate mode                            : Constant
Bit rate                                 : 640 kb/s
Channel(s)                               : 6 channels
Channel positions                        : Front: L C R, Side: L R, LFE
Sampling rate                            : 48.0 kHz
Frame rate                               : 31.250 FPS (1536 spf)
Bit depth                                : 16 bits
Compression mode                         : Lossy
Stream size                              : 561 MiB (6%)
Title                                    : Ita. AC3 640 Kbps
Language                                 : Italian
Service kind                             : Complete Main
Default                                  : Yes
Forced                                   : No

Audio #2
ID                                       : 3
Format                                   : DTS
Format/Info                              : Digital Theater Systems
Mode                                     : 16
Format settings, Endianness              : Big
Codec ID                                 : A_DTS
Duration                                 : 2 h 2 min
Bit rate mode                            : Constant
Bit rate                                 : 1 509 kb/s
Channel(s)                               : 6 channels
Channel positions                        : Front: L C R, Side: L R, LFE
Sampling rate                            : 48.0 kHz
Frame rate                               : 93.750 FPS (512 spf)
Bit depth                                : 24 bits
Compression mode                         : Lossy
Stream size                              : 1.29 GiB (13%)
Title                                    : Eng. DTS 1510 Kbps
Language                                 : English
Default                                  : No
Forced                                   : No

Text #1
ID                                       : 4
Format                                   : UTF-8
Codec ID                                 : S_TEXT/UTF8
Codec ID/Info                            : UTF-8 Plain Text
Duration                                 : 1 h 54 min
Bit rate                                 : 1 b/s
Count of elements                        : 40
Stream size                              : 1.65 KiB (0%)
Title                                    : Sub. Ita. Forced
Language                                 : Italian
Default                                  : Yes
Forced                                   : Yes

Text #2
ID                                       : 5
Format                                   : UTF-8
Codec ID                                 : S_TEXT/UTF8
Codec ID/Info                            : UTF-8 Plain Text
Duration                                 : 1 h 54 min
Bit rate                                 : 62 b/s
Count of elements                        : 1956
Stream size                              : 52.6 KiB (0%)
Title                                    : Sub. Ita.
Language                                 : Italian
Default                                  : No
Forced                                   : No

Text #3
ID                                       : 6
Format                                   : UTF-8
Codec ID                                 : S_TEXT/UTF8
Codec ID/Info                            : UTF-8 Plain Text
Duration                                 : 1 h 53 min
Bit rate                                 : 77 b/s
Count of elements                        : 2085
Stream size                              : 64.6 KiB (0%)
Title                                    : Sub. Eng. Not Hearing
Language                                 : English
Default                                  : No
Forced                                   : No

Menu
00:00:00.000                             : en:00:00:00.000
00:09:44.292                             : en:00:09:44.292
00:18:27.523                             : en:00:18:27.523
00:31:22.130                             : en:00:31:22.130
00:41:49.507                             : en:00:41:49.507
00:51:58.782                             : en:00:51:58.782
00:59:19.890                             : en:00:59:19.890
01:09:17.779                             : en:01:09:17.779
01:19:53.956                             : en:01:19:53.956
01:28:47.906                             : en:01:28:47.906
01:39:44.270                             : en:01:39:44.270
01:52:18.732                             : en:01:52:18.732
01:55:14.407                             : en:01:55:14.407





Info: Per scaricare devi usare un client come uTorrent o Transmission
AnnounceURL
udp://tracker.tntvillage.scambioetico.org:2710/announce
Hash 30e03a0cdf26644b8bf931aab4e213ca0b9f8722
Peers seeds: 6 , leech: 0
Size 9.72 GB
Completato 1010x
Aggiunto 22.06.17 - 10:06:45
Uploader   alicerasi
Votazione (Voti: 0)


Condividi questo bittorrent:


html/blog:


bbcode/forum:




Aggiungi Commento