El Ultimo de los Mohicanos | Alderamin on the Sky (2016) Season S01 BD 1080p x265 10bit AAC 5 1 EN+JA - [Langbard] | Utakata Dialogue
 * Dettagli Torrent   globale  | Commenti (0) 


- American.Gods.1x08.Come.To.Jesus.ITA.ENG.720p.WEBMux.x264-Morpheus.mkv -


Download via torrent:
Categoria bittorrent SerieTv
Descrizione
[center]

GIUSEPPEiCV & LITTLELINX
HANNO IL PIACERE DI PRESENTARE


AMERICAN GODS
STAGIONE 1
WEBMux 720p
Dual Language ITA - ENG
Sub ITA - ENG
Trovi tutte le nostre serie su
IL CORSARO VERDE
www.icv-crew.org





.: Dati Serie :.

Nazione: Stati Uniti d'America
Anno: 2017 -  in produzione
Genere: fantastico, drammatico
Stagione: 1
Episodi: 8
Durata: 42 min circa
Lingua: ITA - ENG
Ideatore: Bryan Fuller, Michael Green
Soggetto: Neil Gaiman (romanzo)
Cast:
• Ricky Whittle: Shadow Moon
• Emily Browning: Laura Moon
• Crispin Glover: Mr. World
• Bruce Langley: Technical Boy
• Yetide Badaki: Bilquis
• Pablo Schreiber: Mad Sweeney
• Ian McShane: Mr. Wednesday

[youtube]http://www.youtube.com/watch?v=Jofes_Zr2jc[/youtube][/center]

A recently released ex-convict named Shadow meets a mysterious man who calls himself "Wednesday" and who knows more than he first seems to about Shadow's life and past.


Dopo aver trascorso gli ultimi tre anni in prigione per aggressione, il misterioso Shadow Moon torna in libertà in seguito alla morte della moglie Laura in un incidente stradale. Senza altre opzioni, Shadow accetta l'offerta di lavoro di un uomo che si fa chiamare Wednesday, un truffatore in cerca di qualcuno che collabori ai suoi affari e lo protegga, scoprendo ben presto che un antico dio scandinavo si cela sotto le sue spoglie mortali. Wednesday sta attraversando l'America per riunire vecchie divinità bibliche e mitologiche che, senza più credenti, ora si fingono persone comuni. Con queste è determinato a scatenare uno scontro finale con quei nuovi dei - denaro, tecnologia, media, fama, droga e molti altri - che sempre di più affascinano la società moderna.


[center].: Screenshot :.








.: Caratteristiche Tecniche :.


[spoiler]
American.Gods.1x01.The.Bone.Orchard.ITA.ENG.720p.WEBMux.x264-Morpheus.mkv
Format                                   : Matroska
Format version                           : Version 4 / Version 2
File size                                : 2.10 GiB
Duration                                 : 1h 2mn
Overall bit rate                         : 4 770 Kbps
Encoded date                             : UTC 2017-05-01 16:15:44
Writing application                      : mkvmerge v7.6.0 ('Garden of Dreams') 64bit built on Feb  8 2015 15:12:28
Writing library                          : libebml v1.3.1 + libmatroska v1.4.2
DURATION                                 : 01:00:13.514000000
NUMBER_OF_FRAMES                         : 615
NUMBER_OF_BYTES                          : 25152
_STATISTICS_WRITING_APP                  : mkvmerge v7.6.0 ('Garden of Dreams') 64bit built on Feb  8 2015 15:12:28
_STATISTICS_WRITING_DATE_UTC             : 2017-05-01 16:15:44
_STATISTICS_TAGS                         : BPS DURATION NUMBER_OF_FRAMES NUMBER_OF_BYTES

Video
ID                                       : 1
Format                                   : AVC
Format/Info                              : Advanced Video Codec
Format profile                           : [email protected]
Format settings, CABAC                   : Yes
Format settings, ReFrames                : 9 frames
Codec ID                                 : V_MPEG4/ISO/AVC
Duration                                 : 1h 2mn
Bit rate                                 : 4 099 Kbps
Width                                    : 1 280 pixels
Height                                   : 720 pixels
Display aspect ratio                     : 16:9
Frame rate                               : 23.976 fps
Color space                              : YUV
Chroma subsampling                       : 4:2:0
Bit depth                                : 8 bits
Scan type                                : Progressive
Bits/(Pixel*Frame)                       : 0.185
Stream size                              : 1.80 GiB (86%)
Writing library                          : x264 core 148 r2762+12 (master: 5d7902f / tmod: fdded9f) [X86_64]
Encoding settings                        : cabac=1 / ref=9 / deblock=1:-3:-3 / analyse=0x3:0x113 / me=umh / subme=10 / psy=1 / fade_compensate=0.00 / psy_rd=1.05:0.15 / mixed_ref=1 / me_range=48 / chroma_me=1 / trellis=2 / 8x8dct=1 / cqm=0 / deadzone=21,11 / fast_pskip=0 / chroma_qp_offset=-3 / threads=22 / lookahead_threads=3 / sliced_threads=0 / nr=0 / decimate=0 / interlaced=0 / bluray_compat=0 / constrained_intra=0 / fgo=0 / bframes=9 / b_pyramid=2 / b_adapt=2 / b_bias=0 / direct=3 / weightb=1 / open_gop=0 / weightp=2 / keyint=250 / keyint_min=23 / scenecut=40 / intra_refresh=0 / rc=crf / mbtree=0 / crf=18.0000 / qcomp=0.65 / qpmin=0:0:0 / qpmax=69:69:69 / qpstep=4 / ip_ratio=1.40 / pb_ratio=1.30 / aq=3:0.75 / aq-sensitivity=10.00 / aq-factor=1.00:1.00:1.00 / aq2=0 / aq3=0
Language                                 : English
Default                                  : Yes
Forced                                   : No
DURATION                                 : 01:02:55.814000000
NUMBER_OF_FRAMES                         : 90529
NUMBER_OF_BYTES                          : 1978240076
_STATISTICS_WRITING_APP                  : mkvmerge v7.6.0 ('Garden of Dreams') 64bit built on Feb  8 2015 15:12:28
_STATISTICS_WRITING_DATE_UTC             : 2017-05-01 16:15:44
_STATISTICS_TAGS                         : BPS DURATION NUMBER_OF_FRAMES NUMBER_OF_BYTES

Audio #1
ID                                       : 2
Format                                   : AC-3
Format/Info                              : Audio Coding 3
Mode extension                           : CM (complete main)
Codec ID                                 : A_AC3
Duration                                 : 1h 2mn
Bit rate mode                            : Constant
Bit rate                                 : 192 Kbps
Channel(s)                               : 2 channels
Channel positions                        : Front: L R
Sampling rate                            : 48.0 KHz
Bit depth                                : 16 bits
Compression mode                         : Lossy
Stream size                              : 86.4 MiB (4%)
Title                                    : ITA
Language                                 : Italian
Default                                  : Yes
Forced                                   : Yes

Audio #2
ID                                       : 3
Format                                   : AC-3
Format/Info                              : Audio Coding 3
Mode extension                           : CM (complete main)
Codec ID                                 : A_AC3
Duration                                 : 1h 2mn
Bit rate mode                            : Constant
Bit rate                                 : 384 Kbps
Channel(s)                               : 6 channels
Channel positions                        : Front: L C R, Side: L R, LFE
Sampling rate                            : 48.0 KHz
Bit depth                                : 16 bits
Compression mode                         : Lossy
Stream size                              : 173 MiB (8%)
Title                                    : ENG
Language                                 : English
Default                                  : No
Forced                                   : No

Text #1
ID                                       : 4
Format                                   : UTF-8
Codec ID                                 : S_TEXT/UTF8
Codec ID/Info                            : UTF-8 Plain Text
Title                                    : ITA - Forced
Language                                 : Italian
Default                                  : Yes
Forced                                   : Yes

Text #2
ID                                       : 5
Format                                   : UTF-8
Codec ID                                 : S_TEXT/UTF8
Codec ID/Info                            : UTF-8 Plain Text
Language                                 : Italian
Default                                  : No
Forced                                   : No

Text #3
ID                                       : 6
Format                                   : UTF-8
Codec ID                                 : S_TEXT/UTF8
Codec ID/Info                            : UTF-8 Plain Text
Language                                 : English
Default                                  : No
Forced                                   : No

Text #4
ID                                       : 7
Format                                   : UTF-8
Codec ID                                 : S_TEXT/UTF8
Codec ID/Info                            : UTF-8 Plain Text
Title                                    : SDH
Language                                 : English
Default                                  : No
Forced                                   : No

[/spoiler]

.: Ringraziamenti :.

mimmuz_89



RESTATE IN SEED ALTRIMENTI

 

[/center]
Info: Per scaricare devi usare un client come uTorrent o Transmission
AnnounceURL
http://tracker.tntvillage.scambioetico.org:2710/announce
Hash 3bc3152337a03b8c5c72851591b8ab4e17c116e8
Peers seeds: 80 , leech: 12
Size 1.89 GB
Completato 1288x
Aggiunto 20.06.17 - 17:06:20
Uploader   ppb1
Votazione (Voti: 0)


Condividi questo bittorrent:


html/blog:


bbcode/forum:




Aggiungi Commento