Bethany Whitmore | Storie di ordinaria follia | Stream Link 2
 * Dettagli Torrent   globale  | Commenti (0) 


- L'ultima tempesta (2016) [BDrip 1080p - H264 - Ita Dts 5.1 Eng Ac3 5.1 - Sub Ita NUEng] by BJL -


Download via torrent:
Categoria bittorrent BDRip
Descrizione
L'ultima tempesta (2016)



Titolo originale: The Finest Hours
Nazionalità: Stati Uniti d'America
Anno: 2016
Genere: drammatico, biografico, avventura
Regia: Craig Gillespie

Cast:
Chris Pine: Bernard 'Bernie' Webber
Casey Affleck: Raymond Sybert
Ben Foster: Richard Livesey
Holliday Grainger: Miriam Pentinen Webber
John Ortiz: Wallace Quirey
Eric Bana: Daniel Cluff
Josh Stewart: Tchuda Southerland
Graham McTavish: Frank Fauteux
Abraham Benrubi: George 'Tiny' Myers
Kyle Gallner: Andrew Fitzgerald
Michael Raymond-James: D.A. Brown
Beau Knapp: Mel Gouthro
John Magaro: Ervin Maske
Matthew Maher: Carl Nickerson
Benjamin Koldyke: Donald Bangs
Jesse Gabbard: Domingo Garcia
Alexander Cook: John Stello
Keiynan Lonsdale: Eldon Hanan
Rachel Brosnahan: Bea Hansen

Nel febbraio del 1952 una violenta tempesta colpisce la petroliera SS Pendleton, che viene letteralmente spezzata a metà, intrappolando più di 30 marinai al suo interno. Spetta a Ray Sybert, l'ufficiale più anziano a bordo, prendere in pugno la situazione cercando di salvare il suo equipaggio. Nel frattempo la notizia giunge alla guardia costiera di Chatham, e viene immediatamente organizzata una missione per recuperare i sopravvissuti, guidata da Bernie Webber a bordo di una motovedetta CG 36500.





General
Unique ID                                : 186465635976785366924393010425514603553 (0x8C47F9A63A6731D8B31B81F0BC82B421)
Complete name                            : D:\Incoming\L.Ultima.Tempesta.2016.BDRip.1080p.DTS.iTA.AC3.ENG.Subs.x264-BJL.mkv
Format                                   : Matroska
Format version                           : Version 4 / Version 2
File size                                : 8.18 GiB
Duration                                 : 1 h 57 min
Overall bit rate                         : 9 984 kb/s
Encoded date                             : UTC 2016-07-02 11:06:44
Writing application                      : mkvmerge v8.3.0 ('Over the Horizon') 64bit
Writing library                          : libebml v1.3.1 + libmatroska v1.4.2
Cover                                    : Yes
Attachments                              : cover front.png / cover res.png

Video
ID                                       : 1
Format                                   : AVC
Format/Info                              : Advanced Video Codec
Format profile                           : [email protected]
Format settings, CABAC                   : Yes
Format settings, ReFrames                : 4 frames
Codec ID                                 : V_MPEG4/ISO/AVC
Duration                                 : 1 h 57 min
Bit rate                                 : 7 811 kb/s
Width                                    : 1 920 pixels
Height                                   : 800 pixels
Display aspect ratio                     : 2.40:1
Frame rate mode                          : Constant
Frame rate                               : 23.976 (24000/1001) FPS
Color space                              : YUV
Chroma subsampling                       : 4:2:0
Bit depth                                : 8 bits
Scan type                                : Progressive
Bits/(Pixel*Frame)                       : 0.212
Stream size                              : 6.40 GiB (78%)
Title                                    : BjL BDRip 1080p
Writing library                          : x264 core 148 r2692 64f4e24
Default                                  : Yes
Forced                                   : No

Audio #1
ID                                       : 2
Format                                   : DTS
Format/Info                              : Digital Theater Systems
Mode                                     : 16
Format settings, Endianness              : Big
Codec ID                                 : A_DTS
Duration                                 : 1 h 57 min
Bit rate mode                            : Constant
Bit rate                                 : 1 509 kb/s
Channel(s)                               : 6 channels
Channel positions                        : Front: L C R, Side: L R, LFE
Sampling rate                            : 48.0 kHz
Frame rate                               : 93.750 FPS (512 spf)
Bit depth                                : 24 bits
Compression mode                         : Lossy
Stream size                              : 1.24 GiB (15%)
Title                                    : Italiano DTS 5.1
Language                                 : Italian
Default                                  : Yes
Forced                                   : No

Audio #2
ID                                       : 3
Format                                   : AC-3
Format/Info                              : Audio Coding 3
Format settings, Endianness              : Big
Codec ID                                 : A_AC3
Duration                                 : 1 h 57 min
Bit rate mode                            : Constant
Bit rate                                 : 640 kb/s
Channel(s)                               : 6 channels
Channel positions                        : Front: L C R, Side: L R, LFE
Sampling rate                            : 48.0 kHz
Frame rate                               : 31.250 FPS (1536 spf)
Bit depth                                : 16 bits
Compression mode                         : Lossy
Stream size                              : 537 MiB (6%)
Title                                    : English AC3 5.1
Language                                 : English
Service kind                             : Complete Main
Default                                  : No
Forced                                   : No

Text #1
ID                                       : 4
Format                                   : UTF-8
Codec ID                                 : S_TEXT/UTF8
Codec ID/Info                            : UTF-8 Plain Text
Duration                                 : 1 h 49 min
Bit rate                                 : 0 b/s
Count of elements                        : 17
Stream size                              : 667 Bytes (0%)
Title                                    : Ita Forced
Language                                 : Italian
Default                                  : Yes
Forced                                   : No

Text #2
ID                                       : 5
Format                                   : UTF-8
Codec ID                                 : S_TEXT/UTF8
Codec ID/Info                            : UTF-8 Plain Text
Duration                                 : 1 h 50 min
Bit rate                                 : 45 b/s
Count of elements                        : 1174
Stream size                              : 37.2 KiB (0%)
Title                                    : Ita Normal
Language                                 : Italian
Default                                  : No
Forced                                   : No

Text #3
ID                                       : 6
Format                                   : UTF-8
Codec ID                                 : S_TEXT/UTF8
Codec ID/Info                            : UTF-8 Plain Text
Duration                                 : 1 h 55 min
Bit rate                                 : 53 b/s
Count of elements                        : 1618
Stream size                              : 45.0 KiB (0%)
Title                                    : Eng SDH
Language                                 : English
Default                                  : No
Forced                                   : No

Text #4
ID                                       : 7
Format                                   : PGS
Muxing mode                              : zlib
Codec ID                                 : S_HDMV/PGS
Codec ID/Info                            : Picture based subtitle format used on BDs/HD-DVDs
Duration                                 : 1 h 49 min
Bit rate                                 : 148 b/s
Count of elements                        : 34
Stream size                              : 118 KiB (0%)
Title                                    : Ita Forced [sup]
Language                                 : Italian
Default                                  : No
Forced                                   : No

Text #5
ID                                       : 8
Format                                   : PGS
Muxing mode                              : zlib
Codec ID                                 : S_HDMV/PGS
Codec ID/Info                            : Picture based subtitle format used on BDs/HD-DVDs
Duration                                 : 1 h 50 min
Bit rate                                 : 8 522 b/s
Count of elements                        : 2348
Stream size                              : 6.73 MiB (0%)
Title                                    : Ita Normal [sup]
Language                                 : Italian
Default                                  : No
Forced                                   : No

Text #6
ID                                       : 9
Format                                   : PGS
Muxing mode                              : zlib
Codec ID                                 : S_HDMV/PGS
Codec ID/Info                            : Picture based subtitle format used on BDs/HD-DVDs
Duration                                 : 1 h 55 min
Bit rate                                 : 11.4 kb/s
Count of elements                        : 3236
Stream size                              : 9.42 MiB (0%)
Title                                    : Eng SDH [sup]
Language                                 : English
Default                                  : No
Forced                                   : No

Menu
00:00:00.000                             : :00:00:00.000
00:09:13.887                             : :00:09:13.887
00:14:22.195                             : :00:14:22.195
00:19:52.108                             : :00:19:52.108
00:22:56.792                             : :00:22:56.792
00:28:34.379                             : :00:28:34.379
00:34:05.210                             : :00:34:05.210
00:36:59.384                             : :00:36:59.384
00:42:50.902                             : :00:42:50.902
00:45:01.157                             : :00:45:01.157
00:46:59.442                             : :00:46:59.442
00:48:44.463                             : :00:48:44.463
00:50:12.551                             : :00:50:12.551
00:55:53.141                             : :00:55:53.141
01:04:47.967                             : :01:04:47.967
01:08:58.634                             : :01:08:58.634
01:11:38.836                             : :01:11:38.836
01:16:16.489                             : :01:16:16.489
01:20:30.325                             : :01:20:30.325
01:33:30.480                             : :01:33:30.480
01:42:27.641                             : :01:42:27.641
01:49:40.324                             : :01:49:40.324





Info: Per scaricare devi usare un client come uTorrent o Transmission
AnnounceURL
http://tracker.tntvillage.scambioetico.org:2710/announce
Hash 65536678b4d72e44e72ecdb573c26a0ca8b920bd
Peers seeds: 16 , leech: 0
Size 8.18 GB
Completato 2487x
Aggiunto 06.06.17 - 11:06:25
Uploader   alicerasi
Votazione (Voti: 0)


Condividi questo bittorrent:


html/blog:


bbcode/forum:




Aggiungi Commento