999 Nụ Hôn Bá Đạo Của Nam Thần – Chap 253 | Avast Internet Security 2017 Final 17 1 3394 0 + Keys | Knowing Brother Episode 45
 * Dettagli Torrent   globale  | Commenti (0) 


- Land of Mine - Sotto la sabbia (2015) [XviD - Ita Ac3 5.1 - Sub NUIta] BDrip by BLUWORLD -


Download via torrent:
Categoria bittorrent BDRip
Descrizione
Land of Mine - Sotto la sabbia (2015)



Titolo originale: Under Sandet
Nazionalità: Danimarca, Germania
Anno: 2015
Genere: drammatico
Regia: Martin Zandvliet

Cast:
Roland Møller: Sergente Rasmussen
Mikkel Følsgaard: Tenente Ebbe
Laura Bro: Karin
Louis Hofmann: Sebastian Schumann
Joel Basman: Helmut Morbach
Oskar Bökelmann: Ludwig Haffke
Emil Buschow: Werner Lessner
Leon Seidel: Wilhelm Hahn
Karl Alexander Seider: Manfred
Maximilian Beck: August Kluger
August Carter: Rodolf Selke
Tim Bulow: Hermann Marklein
Alexander Rasch: Friedrich Schnurr
Julius Kochinke: Johann Wolff

Nei giorni successivi alla resa della Germania nel maggio 1945, un gruppo di giovani prigionieri di guerra tedeschi viene inviato dalle autorità danesi lungo i confini della Danimarca con l'ordine di rimuovere più di due milioni di mine che i tedeschi avevano sotterrato nella sabbia lungo la costa. Con le loro mani nude i ragazzi sono costretti a svolgere questo pericoloso compito sotto la guida del sergente danese Carl Leopold Rasmussen.




General
Complete name                            : D:\Downloads\Land.Of.Mine-Sotto.La.Sabbia.2015.iTALiAN.BRRip.XviD.BLUWORLD.avi
Format                                   : AVI
Format/Info                              : Audio Video Interleave
File size                                : 1.37 GiB
Duration                                 : 1 h 41 min
Overall bit rate                         : 1 931 kb/s
Writing application                      : VirtualDubMod 1.5.4.1 (build 2178/release)
Writing library                          : VirtualDubMod build 2178/release

Video
ID                                       : 0
Format                                   : MPEG-4 Visual
Format profile                           : Advanced [email protected]
Format settings, BVOP                    : 1
Format settings, QPel                    : No
Format settings, GMC                     : No warppoints
Format settings, Matrix                  : Custom
Codec ID                                 : XVID
Codec ID/Hint                            : XviD
Duration                                 : 1 h 41 min
Bit rate                                 : 1 285 kb/s
Width                                    : 720 pixels
Height                                   : 304 pixels
Display aspect ratio                     : 2.35:1
Frame rate                               : 24.000 FPS
Color space                              : YUV
Chroma subsampling                       : 4:2:0
Bit depth                                : 8 bits
Scan type                                : Progressive
Compression mode                         : Lossy
Bits/(Pixel*Frame)                       : 0.245
Stream size                              : 931 MiB (67%)
Writing library                          : XviD 64

Audio
ID                                       : 1
Format                                   : AC-3
Format/Info                              : Audio Coding 3
Format settings, Endianness              : Big
Codec ID                                 : 2000
Duration                                 : 1 h 41 min
Bit rate mode                            : Constant
Bit rate                                 : 640 kb/s
Channel(s)                               : 6 channels
Channel positions                        : Front: L C R, Side: L R, LFE
Sampling rate                            : 48.0 kHz
Frame rate                               : 31.250 FPS (1536 spf)
Bit depth                                : 16 bits
Compression mode                         : Lossy
Stream size                              : 464 MiB (33%)
Alignment                                : Split accross interleaves
Interleave, duration                     : 96  ms (2.30 video frames)
Interleave, preload duration             : 96  ms
Service kind                             : Complete Main

General
Complete name                            : D:\Downloads\Land.Of.Mine-Sotto.La.Sabbia.Sub.Ita.Non.Udenti.srt
File size                                : 120 KiB





Info: Per scaricare devi usare un client come uTorrent o Transmission
AnnounceURL
udp://tracker.coppersurfer.tk:6969
Hash 530cca75f5783869cec0818e3209d4b2d358606c
Peers seeds: 23 , leech: 2
Size 1.37 GB
Completato 14439x
Aggiunto 26.05.17 - 17:05:33
Uploader   alicerasi
Votazione (Voti: 0)


Condividi questo bittorrent:


html/blog:


bbcode/forum:




Aggiungi Commento