EPS 15 999: Whats Your Emergency | Animation | Candy Jar FRENCH WEBRIP 2018
 * Dettagli Torrent   globale  | Commenti (0) 


- Firefly S01e01-15 [BDmux 720p - H264 - Ita Eng Ac3 - Sub Ita Eng] By DarkSideMux -


Download via torrent:
Categoria bittorrent SerieTv
Descrizione


Titolo originale: Firefly
Genere: Fantascienza
Episodi: 15
Durata episodio: 45 minuti circa
Anno di produzione: 2002
Nazione: Stati Uniti

Cast:
  • Nathan Fillion: Malcolm "Mal" Reynolds
  • Gina Torres: Zoë Alleyne Washburne
  • Alan Tudyk: Hoban "Wash" Washburne
  • Morena Baccarin: Inara Serra
  • Adam Baldwin: Jayne Cobb
  • Jewel Staite: Kaywinnit Lee "Kaylee" Frye
  • Sean Maher: Dr. Simon Tam
  • Summer Glau: River Tam
  • Ron Glass: Derrial Book

    Il pianeta terra era diventato troppo piccolo per sostenere la continua ed inarrestabile crescita demografica; una parte della popolazione mondiale decise, allora, di partire per lo spazio infinito alla ricerca di una nova casa, un nuovo mondo in cui fondare nuove civiltà.
    I pionieri dello spazio giunsero infine in una nuova galassia, con decine di pianeti e di satelliti, che pian piano vennero colonizzati e resi abitabili.
    I pianeti centrali, più vicini al nuovo sole, erano quelli con le condizioni ambientali e climatiche più favorevoli alla vita umana, divennero quindi i più ricchi e i più potenti e si riunirono formando l’Alleanza.
    I mondi più piccoli e periferici, invece, dove la vita era più dura, vollero restare indipendenti e liberi; si scatenò, quindi, una guerra feroce e devastante tra l’Indipendenza e L’Alleanza.
    La potenza militare dell’Alleanza era nettamente superiore a quella degli avversari, che vennero brutalmente sconfitti.
    L’epilogo del conflitto fu la sanguinosa battaglia nella valle di Serenity, uno scontro altamente decisivo per l’esito finale, ma altrettanto devastante: un vero bagno di sangue, circa mezzo milione di morti.
    All’inizio della battaglia il sergente Malcolm Reynolds comandava un gruppo di circa trenta reclute, tra le quali Zoe, ma dopo una sola settimana erano morti così tanti ufficiali, che Malcolm fu messo a capo di duemila soldati, dei quali solo 400 sopravvissero.
    Ma il momento più devastante fu dopo la fine degli scontri: durante i negoziati di pace, entrambe le fazioni lasciarono i propri soldati al fronte, senza soccorsi medici, né assistenza di alcun tipo, per una settimana.
    Quello che non avevano fatto le bombe ed i proiettili, lo fecero la fame e le malattie e i superstiti furono decimati.
    Finita la guerra, Malcolm, assieme a Zoe, trovò la nave dei suoi sogni e decise di chiamarla Serenity perché una volta che sei dentro, non l’abbandoni più, impari a viverci.

    Forse Firefly è stato il trampolino di lancio di quasi tutti i protagonisti:

  • Nathan Fillion: Malcolm "Mal" Reynolds, il nostro mitico Castle
  • Gina Torres: Zoë Alleyne Washburne, la cattiverrima Anna Espinosa di Alias
  • Alan Tudyk: Hoban "Wash" Washburne, il lucertolone Dale Maddox di V o Alpha di Dollhouse
  • Morena Baccarin: Inara Serra, non vi dice nulla Anna di V???
  • Adam Baldwin: Jayne Cobb, il John Casey di Chuck
  • Jewel Staite: Kaywinnit Lee "Kaylee" Frye, la  Dr. Jennifer Keller di Stargate Atlantis
    e, ultima non per ultima

  • Summer Glau: River Tam, la Orwell in The Cape, l'indimenticabile robottina Cameron Phillips di Terminator: The Sarah Connor Chronicles, Tess Doerner di The 4400, Bennett Halverson Dollhouse
    un motivo in più per vedere/rivedere questo simpatico telefilm in dual language ed in HD








    General
    Unique ID                                : 200600724771021019899849804374645021793 (0x96EA4B554B327AC0B9C02081CE561C61)
    Complete name                            : D:\Downloads\Firefly.S01.HD\Firefly.1x01_02.Serenity-Nuovi.compagni.di.viaggio.ITA-ENG.720p.BDmux-DarkSideMux.mkv
    Format                                   : Matroska
    Format version                           : Version 2
    File size                                : 3.79 GiB
    Duration                                 : 1 h 25 min
    Overall bit rate                         : 6 385 kb/s
    Movie name                               : "Firefly" (2002) - Episode 1: Serenity
    Encoded date                             : UTC 2011-10-30 19:51:00
    Writing application                      : mkvmerge v5.0.1 ('Es ist Sommer') built on Oct  9 2011 11:55:43
    Writing library                          : libebml v1.2.2 + libmatroska v1.3.0

    Video
    ID                                       : 1
    Format                                   : AVC
    Format/Info                              : Advanced Video Codec
    Format profile                           : [email protected]
    Format settings                          : CABAC / 10 Ref Frames
    Format settings, CABAC                   : Yes
    Format settings, RefFrames               : 10 frames
    Codec ID                                 : V_MPEG4/ISO/AVC
    Duration                                 : 1 h 25 min
    Bit rate                                 : 5 709 kb/s
    Width                                    : 1 280 pixels
    Height                                   : 720 pixels
    Display aspect ratio                     : 16:9
    Frame rate mode                          : Constant
    Frame rate                               : 25.000 FPS
    Original frame rate                      : 23.976 FPS
    Color space                              : YUV
    Chroma subsampling                       : 4:2:0
    Bit depth                                : 8 bits
    Scan type                                : Progressive
    Bits/(Pixel*Frame)                       : 0.248
    Stream size                              : 3.38 GiB (89%)
    Title                                    : Firefly.BDmux.x264
    Writing library                          : x264 core 65 r1057M 5f8a149
    Encoding settings                        : cabac=1 / ref=10 / deblock=1:-3:-3 / analyse=0x3:0x133 / me=umh / subme=9 / psy_rd=0.8:0.0 / mixed_ref=1 / me_range=24 / chroma_me=1 / trellis=2 / 8x8dct=1 / cqm=0 / deadzone=21,11 / chroma_qp_offset=-2 / threads=6 / nr=0 / decimate=0 / mbaff=0 / bframes=3 / b_pyramid=1 / b_adapt=2 / b_bias=0 / direct=1 / wpredb=1 / keyint=250 / keyint_min=25 / scenecut=40(pre) / rc=2pass / bitrate=5709 / ratetol=1.0 / qcomp=0.60 / qpmin=8 / qpmax=51 / qpstep=4 / cplxblur=20.0 / qblur=0.5 / vbv_maxrate=50000 / vbv_bufsize=50000 / ip_ratio=1.40 / pb_ratio=1.30 / aq=1:0.80
    Language                                 : Italian
    Default                                  : Yes
    Forced                                   : No

    Audio #1
    ID                                       : 2
    Format                                   : AC-3
    Format/Info                              : Audio Coding 3
    Codec ID                                 : A_AC3
    Duration                                 : 1 h 25 min
    Bit rate mode                            : Constant
    Bit rate                                 : 192 kb/s
    Channel(s)                               : 2 channels
    Channel positions                        : Front: L R
    Sampling rate                            : 48.0 kHz
    Frame rate                               : 31.250 FPS (1536 SPF)
    Bit depth                                : 16 bits
    Compression mode                         : Lossy
    Stream size                              : 117 MiB (3%)
    Title                                    : Italian AC3 192
    Language                                 : Italian
    Service kind                             : Complete Main
    Default                                  : Yes
    Forced                                   : No

    Audio #2
    ID                                       : 3
    Format                                   : AC-3
    Format/Info                              : Audio Coding 3
    Codec ID                                 : A_AC3
    Duration                                 : 1 h 25 min
    Bit rate mode                            : Constant
    Bit rate                                 : 384 kb/s
    Channel(s)                               : 6 channels
    Channel positions                        : Front: L C R, Side: L R, LFE
    Sampling rate                            : 48.0 kHz
    Frame rate                               : 31.250 FPS (1536 SPF)
    Bit depth                                : 16 bits
    Compression mode                         : Lossy
    Stream size                              : 234 MiB (6%)
    Title                                    : English AC3 384
    Language                                 : English
    Service kind                             : Complete Main
    Default                                  : No
    Forced                                   : No

    Text #1
    ID                                       : 4
    Format                                   : UTF-8
    Codec ID                                 : S_TEXT/UTF8
    Codec ID/Info                            : UTF-8 Plain Text
    Title                                    : Subs ITA
    Language                                 : Italian
    Default                                  : No
    Forced                                   : No

    Text #2
    ID                                       : 5
    Format                                   : UTF-8
    Codec ID                                 : S_TEXT/UTF8
    Codec ID/Info                            : UTF-8 Plain Text
    Title                                    : Subs ENG
    Language                                 : English
    Default                                  : No
    Forced                                   : No
  • Info: Per scaricare devi usare un client come uTorrent o Transmission
    AnnounceURL
    http://tracker.tntvillage.scambioetico.org:2710/announce
    Hash bb7868685af08193cc549a1453c5a2d76942d383
    Peers seeds: 9 , leech: 6
    Size 37.81 GB
    Completato 1839x
    Aggiunto 04.01.17 - 12:01:08
    Uploader   alicerasi
    Votazione (Voti: 0)


    Condividi questo bittorrent:


    html/blog:


    bbcode/forum:




    Aggiungi Commento