Björn Hlynur Haraldsson | приключения | Policial
 * Dettagli Torrent   globale  | Commenti (0) 


- Firefly S01e01-15 [XviD - Ita Eng Mp3 - Sub Ita Eng] BDmux By DarkSideMux -


Download via torrent:
Categoria bittorrent SerieTv
Descrizione


Titolo originale: Firefly
Genere: Fantascienza
Episodi: 15
Durata episodio: 45 minuti circa
Anno di produzione: 2002
Nazione: Stati Uniti

Cast:
  • Nathan Fillion: Malcolm "Mal" Reynolds
  • Gina Torres: Zoë Alleyne Washburne
  • Alan Tudyk: Hoban "Wash" Washburne
  • Morena Baccarin: Inara Serra
  • Adam Baldwin: Jayne Cobb
  • Jewel Staite: Kaywinnit Lee "Kaylee" Frye
  • Sean Maher: Dr. Simon Tam
  • Summer Glau: River Tam
  • Ron Glass: Derrial Book

    Il pianeta terra era diventato troppo piccolo per sostenere la continua ed inarrestabile crescita demografica; una parte della popolazione mondiale decise, allora, di partire per lo spazio infinito alla ricerca di una nova casa, un nuovo mondo in cui fondare nuove civiltà.
    I pionieri dello spazio giunsero infine in una nuova galassia, con decine di pianeti e di satelliti, che pian piano vennero colonizzati e resi abitabili.
    I pianeti centrali, più vicini al nuovo sole, erano quelli con le condizioni ambientali e climatiche più favorevoli alla vita umana, divennero quindi i più ricchi e i più potenti e si riunirono formando l’Alleanza.
    I mondi più piccoli e periferici, invece, dove la vita era più dura, vollero restare indipendenti e liberi; si scatenò, quindi, una guerra feroce e devastante tra l’Indipendenza e L’Alleanza.
    La potenza militare dell’Alleanza era nettamente superiore a quella degli avversari, che vennero brutalmente sconfitti.
    L’epilogo del conflitto fu la sanguinosa battaglia nella valle di Serenity, uno scontro altamente decisivo per l’esito finale, ma altrettanto devastante: un vero bagno di sangue, circa mezzo milione di morti.
    All’inizio della battaglia il sergente Malcolm Reynolds comandava un gruppo di circa trenta reclute, tra le quali Zoe, ma dopo una sola settimana erano morti così tanti ufficiali, che Malcolm fu messo a capo di duemila soldati, dei quali solo 400 sopravvissero.
    Ma il momento più devastante fu dopo la fine degli scontri: durante i negoziati di pace, entrambe le fazioni lasciarono i propri soldati al fronte, senza soccorsi medici, né assistenza di alcun tipo, per una settimana.
    Quello che non avevano fatto le bombe ed i proiettili, lo fecero la fame e le malattie e i superstiti furono decimati.
    Finita la guerra, Malcolm, assieme a Zoe, trovò la nave dei suoi sogni e decise di chiamarla Serenity perché una volta che sei dentro, non l’abbandoni più, impari a viverci.

    Forse Firefly è stato il trampolino di lancio di quasi tutti i protagonisti:
  • Nathan Fillion: Malcolm "Mal" Reynolds, il nostro mitico Castle
  • Gina Torres: Zoë Alleyne Washburne, la cattiverrima Anna Espinosa di Alias
  • Alan Tudyk: Hoban "Wash" Washburne, il lucertolone Dale Maddox di V o Alpha di Dollhouse
  • Morena Baccarin: Inara Serra, non vi dice nulla Anna di V???
  • Adam Baldwin: Jayne Cobb, il John Casey di Chuck
  • Jewel Staite: Kaywinnit Lee "Kaylee" Frye, la  Dr. Jennifer Keller di Stargate Atlantis
    e, ultima non per ultima

  • Summer Glau: River Tam, la Orwell in The Cape, l'indimenticabile robottina Cameron Phillips di Terminator: The Sarah Connor Chronicles, Tess Doerner di The 4400, Bennett Halverson Dollhouse[/b]
    un motivo in più per vedere/rivedere questo simpatico telefilm in dual language ed in HD







    General
    Complete name                            : D:\Downloads\Firefly.S01.SD\Firefly.1x04.Il.sopravvissuto.ITA-ENG.BDmux-DarkSideMux.avi
    Format                                   : AVI
    Format/Info                              : Audio Video Interleave
    File size                                : 440 MiB
    Duration                                 : 42 min 6 s
    Overall bit rate mode                    : Variable
    Overall bit rate                         : 1 462 kb/s
    Writing application                      : VirtualDubMod 1.5.10.2 (build 2542/release)
    Writing library                          : VirtualDubMod build 2542/release

    Video
    ID                                       : 0
    Format                                   : MPEG-4 Visual
    Format profile                           : Advanced [email protected]
    Format settings                          : BVOP2
    Format settings, BVOP                    : 2
    Format settings, QPel                    : No
    Format settings, GMC                     : No warppoints
    Format settings, Matrix                  : Default (MPEG)
    Codec ID                                 : XVID
    Codec ID/Hint                            : XviD
    Duration                                 : 42 min 6 s
    Bit rate                                 : 1 184 kb/s
    Width                                    : 624 pixels
    Height                                   : 352 pixels
    Display aspect ratio                     : 16:9
    Frame rate                               : 25.000 FPS
    Color space                              : YUV
    Chroma subsampling                       : 4:2:0
    Bit depth                                : 8 bits
    Scan type                                : Progressive
    Compression mode                         : Lossy
    Bits/(Pixel*Frame)                       : 0.216
    Stream size                              : 357 MiB (81%)
    Writing library                          : XviD 1.2.1 (UTC 2008-12-04)

    Audio #1
    ID                                       : 1
    Format                                   : MPEG Audio
    Format version                           : Version 1
    Format profile                           : Layer 3
    Format settings                          : Joint stereo / MS Stereo
    Codec ID                                 : 55
    Codec ID/Hint                            : MP3
    Duration                                 : 42 min 6 s
    Bit rate mode                            : Variable
    Bit rate                                 : 129 kb/s
    Nominal bit rate                         : 136 kb/s
    Channel(s)                               : 2 channels
    Sampling rate                            : 48.0 kHz
    Frame rate                               : 41.667 FPS (1152 SPF)
    Compression mode                         : Lossy
    Stream size                              : 38.9 MiB (9%)
    Alignment                                : Aligned on interleaves
    Interleave, duration                     : 24  ms (0.60 video frame)
    Interleave, preload duration             : 508  ms
    Writing library                          : LAME3.98r
    Encoding settings                        : -m j -V 4 -q 3 -lowpass 17 --abr 136

    Audio #2
    ID                                       : 2
    Format                                   : MPEG Audio
    Format version                           : Version 1
    Format profile                           : Layer 3
    Format settings                          : Joint stereo / MS Stereo
    Codec ID                                 : 55
    Codec ID/Hint                            : MP3
    Duration                                 : 42 min 6 s
    Bit rate mode                            : Variable
    Bit rate                                 : 128 kb/s
    Nominal bit rate                         : 136 kb/s
    Channel(s)                               : 2 channels
    Sampling rate                            : 48.0 kHz
    Frame rate                               : 41.667 FPS (1152 SPF)
    Compression mode                         : Lossy
    Stream size                              : 38.7 MiB (9%)
    Alignment                                : Aligned on interleaves
    Interleave, duration                     : 24  ms (0.60 video frame)
    Interleave, preload duration             : 541  ms
    Writing library                          : LAME3.98r
    Encoding settings                        : -m j -V 4 -q 3 -lowpass 17 --abr 136
  • Info: Per scaricare devi usare un client come uTorrent o Transmission
    AnnounceURL
    http://tracker.tntvillage.scambioetico.org:2710/announce
    Hash 8ac0666a5f72e57f0ebf94e66e6900a664595b2c
    Peers seeds: 8 , leech: 2
    Size 6.44 GB
    Completato 4724x
    Aggiunto 04.01.17 - 12:01:51
    Uploader   alicerasi
    Votazione (Voti: 0)


    Condividi questo bittorrent:


    html/blog:


    bbcode/forum:




    Aggiungi Commento